Skip to main content

Dopapod Live at The Palladium on 2013-12-31

Audio Preview

etree
Dopapod Live at The Palladium on 2013-12-31

by Dopapod



*** This is a 24 bit recording, not intended for CD Burning ***

Dopapod
2013-12-31
The Palladium
Worcester, MA

DPA 4011 > V3 Digital + SBD > R44 (24/96)
SDHC Card > Sound Forge Pro 10.0 (Mix, Normalize, fades) > CD Wav (tracking) > TLH > Flac (level 8)
DIN/ROC (right of FOH)/approx. 7' high
Tags added in Foobar2000

Taped and Transferred by Brian V.

01. Intro
02. Freight Train Filled With Dynamite >
03. Give It A Name
04. Bubblebrain ->
05. Auld Lang Syne* ->
06. Bubblebrain
07. Indian Grits^ ->
08. Vol. 3 #86 >
09. Present Ghosts%
10. Bahbi#
11. banter
12. Upside of Down >
13. Roid Rage
14. encore break
15. We Are Not Alone ->
16. Eight Years Ended
17. outro


Collection Dopapod
Band/Artist Dopapod
Venue The Palladium
Location Worcester, MA

Source DPA 4011 > V3 Digital + SBD > R44 (24/96)
Lineage SDHC Card > Sound Forge Pro 10.0 (Mix, Normalize, fades) > CD Wav (tracking) > TLH > Flac (level 8)
Taped by Brian V.
Transferred by Brian V.

Notes

*The party band and hoop dancers joined the band onstage for the Countdown
^contained Auld Lang Syne tease
%Rob's solo contained a Sexy Sax Man tease
#w/ Gabriel Marin from Consider The Source

thanks to Luke for the SBD feed and Disc Jam Music Festival for a great night of music
***Support Bands That Allow Taping/Trading***

shntool output
length expanded size cdr WAVE problems fmt ratio filename
3:43.120 128517164 B cxx -- ---xx flac 0.4887 dopapod2013-12-31s1t01.flac
10:02.307 346928684 B cxx -- ---xx flac 0.5570 dopapod2013-12-31s1t02.flac
9:23.013 324295724 B cxx -- ---xx flac 0.5560 dopapod2013-12-31s1t03.flac
10:34.907 365706284 B cxx -- ---xx flac 0.5491 dopapod2013-12-31s1t04.flac
0:53.840 31011884 B cxx -- ---xx flac 0.5889 dopapod2013-12-31s1t05.flac
2:29.587 86161964 B cxx -- ---xx flac 0.5598 dopapod2013-12-31s1t06.flac
11:43.653 405304364 B cxx -- ---xx flac 0.5501 dopapod2013-12-31s1t07.flac
12:35.800 435340844 B cxx -- ---xx flac 0.5613 dopapod2013-12-31s1t08.flac
8:22.213 289274924 B cxx -- ---xx flac 0.5605 dopapod2013-12-31s1t09.flac
11:07.853 384683564 B cxx -- ---xx flac 0.5508 dopapod2013-12-31s1t10.flac
1:09.653 40120364 B cxx -- ---xx flac 0.5206 dopapod2013-12-31s1t11.flac
9:22.160 323804204 B cxx -- ---xx flac 0.5555 dopapod2013-12-31s1t12.flac
6:51.919 237265550 B cxx -- ---xx flac 0.5660 dopapod2013-12-31s1t13.flac
2:02.347 70471724 B cxx -- ---xx flac 0.4993 dopapod2013-12-31s1t14.flac
8:27.213 292154924 B cxx -- ---xx flac 0.5530 dopapod2013-12-31s1t15.flac
16:31.720 571230764 B cxx -- ---xx flac 0.5515 dopapod2013-12-31s1t16.flac
1:23.253 47953964 B cxx -- ---xx flac 0.5016 dopapod2013-12-31s1t17.flac
126:44.559 4380226894 B 0.5515 (17 files)

comment
Reviews

Reviewer: Jostigan04 - favoritefavoritefavoritefavoritefavorite - January 4, 2014
Subject: Intimate New Years Eve Bash
Real special night for dopapod returning to a home crowd at the historic and beautiful palladium before a long winter tour, Scotty really turned it on and Eli's improvisations were beautiful. Real impressive bass on Give it a Name and Indian Grits from Chuck, and Gabriel's solo was out of this world, to back up a tremendous opening set from CTS, both bands making it through with new drummers tearing it up (Jeff Mann killed it keeping up with those crazy guys)
DOWNLOAD OPTIONS
In Collection
Dopapod
In Collection
Live Music Archive
Uploaded by
Brian V.
on 1/3/2014
Views
785
Favorites
1
Reviews
1
SIMILAR ITEMS (based on metadata)
eye
Title
Date Archived
Creator
Dopapod
by Dopapod
etree
eye 307
favorite 1
comment 0
Source: DPA 4011 > V3 Digital + SBD > R44 (24/96)
Dopapod
by Dopapod
etree
eye 78
favorite 0
comment 0
Source: Schoeps mk41>Sonosax SX-R4
Dopapod
by Dopapod
etree
eye 124
favorite 0
comment 0
Source: DPA 4011 > V3 Digital + SBD > R44 (24/96)
Dopapod
by Dopapod
etree
eye 353
favorite 0
comment 0
Source: DPA 4011 > V3 Digital + SBD > R44 (24/96)
Dopapod
by Dopapod
etree
eye 120
favorite 0
comment 0
Source: Schoeps mk41/sbd>Sonosax SX-R4
Dopapod
by Dopapod
etree
eye 121
favorite 0
comment 0
Source: Schoeps mk41/sbd>Sonosax SX-R4
Dopapod
by Dopapod
etree
eye 198
favorite 0
comment 0
Source: Church Audio Ca-14 omni NOS>Ugly 2 & ca-14 card DIN>zoom H4n @ 44.1 Khz/16 Bit Wav. Mics 8' FOB ROB
Dopapod
by Dopapod
etree
eye 118
favorite 0
comment 0
Source: Schoeps mk41>Sonosax SX-R4
Dopapod
by Dopapod
etree
eye 1,321
favorite 1
comment 0
Source: Busman BSC2/K11 + Soundboard > Tascam DR-60D (24-bit/48k).
Dopapod
by Dopapod
etree
eye 293
favorite 1
comment 0
Source: Schoeps MK22/MK4>Sonosax SX-R4 + Soundboard>SX-R4